#TITLE:God Know;
#SUBTITLE:SDO China lv16 -[N]hok[Q] Simfile;
#ARTIST:Hirano Aya;
#TITLETRANSLIT:;
#SUBTITLETRANSLIT:;
#ARTISTTRANSLIT:;
#CREDIT:[N]hok[Q];
#BANNER:bn-godknow.png;
#BACKGROUND:bg-godknow.png;
#LYRICSPATH:;
#CDTITLE:cd-godknow.png;
#MUSIC:God know.mp3;
#OFFSET:-0.048;
#SAMPLESTART:66.048;
#SAMPLELENGTH:28.800;
#SELECTABLE:YES;
#DISPLAYBPM:100.000;
#BPMS:0.000=150.000;
#STOPS:;
#BGCHANGES:;
// cache tags:
#FIRSTBEAT:4.000;
#LASTBEAT:316.750;
#SONGFILENAME:Songs/SDO pack 4/God Know/God know.sm;
#HASMUSIC:1;
#HASBANNER:1;
#MUSICLENGTH:128.136;
// end cache tags

//---------------dance-single - ----------------
#NOTES:
     dance-single:
     :
     Hard:
     16:
     1.000,1.000,1.000,0.125,0.968,759.000,138.000,16.000,0.000,35.000:
0000
0000
0000
0000
,
1001
0000
0000
0000
1001
0000
0000
0000
0100
0010
1000
0001
0010
0100
1000
0010
,
0100
0010
0001
0000
1000
0000
0100
0000
0001
0000
0010
0000
0100
0000
0001
0000
,
1000
0100
1000
0000
0010
0000
0100
0000
0001
0000
1000
0000
0010
0000
0001
0000
,
0100
1000
0010
0000
0001
0000
0100
0000
0010
0000
1000
0000
0001
0000
0200
0000
,
0000
0010
0001
1300
0000
0010
0001
0100
,
1000
0010
0100
0000
0001
0000
0100
0000
0010
0000
1000
0000
0100
0000
0001
0000
,
0100
0010
1000
0000
0001
0000
0100
0000
0010
0000
1000
0000
0001
0000
0010
0000
,
0001
0010
0100
0010
0001
0010
0001
0010
0100
0010
0100
0010
0100
1000
0100
1000
,
0100
0010
0100
0010
0001
0100
1000
0010
,
0100
0001
0010
0000
1000
0000
0100
0000
0001
0000
0010
0000
0100
0000
0010
0000
,
1000
0010
0100
0000
0001
0000
1000
0000
0100
0000
0001
0000
0010
0000
0100
0000
,
0001
0010
1000
0100
0001
0010
0100
0010
,
0001
0100
0010
0000
1000
0000
0100
0000
0001
0000
0010
0000
0100
0000
0001
0000
,
1000
0010
0100
0000
0001
0000
0010
0000
1000
0000
0100
0000
0001
0000
0010
0000
,
1000
0001
0100
0000
0010
0000
1000
0000
0001
0000
0100
0000
0001
0000
0010
0000
,
1000
0100
0010
0100
0001
0010
0100
0010
1000
0100
0001
0010
0001
0010
0100
0010
,
0200
0000
0000
0002
0000
0000
0000
0000
,
2313
0101
0110
0101
,
0110
0101
0110
0101
,
3120
0000
1100
0100
1001
0000
1100
0000
,
0101
0000
0101
1000
1100
0000
1101
0000
,
1231
0011
0011
1001
,
1312
1010
1100
0110
,
1023
0000
0101
0000
1001
0000
1100
0002
,
1100
1000
1100
1100
,
0133
0010
1001
0100
0011
1000
0110
0001
,
1100
0010
0101
1000
0110
0001
1010
0100
,
0011
0000
1000
0000
0110
0000
0001
0000
1010
0000
0100
0000
1000
0010
0100
0001
,
1000
0010
0001
0100
1000
0100
0010
0001
0010
0100
0010
0100
0010
0001
0010
0100
,
1010
0001
0110
1000
0101
0010
1100
0001
,
1010
0000
0100
0000
0011
0000
1000
0001
0110
0000
0001
0000
1010
0000
0001
0000
,
0110
0000
1000
0000
0010
0001
0010
0100
1000
0100
0010
0100
0010
0001
0010
0001
,
0010
0100
0010
0100
1000
0100
1000
0100
0010
0100
0010
0100
0010
0000
0000
0000
,
1010
0001
0110
1000
,
0011
0100
1010
0001
,
0110
1000
0101
0010
,
1001
0000
0100
0000
0011
0011
1000
0000
,
0101
0010
1100
0001
,
0110
0000
0001
0000
1100
1100
0010
0000
,
0101
0000
1000
0000
0110
0110
0001
0000
,
1010
0000
0000
0001
0110
0000
0000
0000
1000
0000
0010
0100
0010
0001
0010
0001
,
1010
0001
0100
0010
0100
1000
0100
0010
0101
1000
0101
0010
1000
0100
0010
1000
,
0101
0010
0100
1000
0100
0001
0010
0001
1100
0010
1100
0010
0001
0010
0100
1000
,
0110
0001
0010
0100
0001
0100
0010
0001
1010
0100
1010
0001
0010
0100
1000
0010
,
1001
0010
0100
1000
0010
0001
0010
1000
0101
0010
0101
1000
0100
0010
0001
1000
,
0110
0001
0010
0100
0001
0010
0100
0010
1100
0001
1100
0010
0001
0010
0100
0010
,
1001
0010
0100
0010
1100
0010
0001
0010
0101
1000
0101
0010
0100
1000
0010
0001
,
0110
1000
0100
0010
0101
1000
0010
0001
1100
0010
1100
0001
0010
0100
0001
0000
,
0000
0000
0000
0000
0010
0000
0000
0000
1000
0000
0010
0100
1000
0000
0001
0010
,
0100
0000
0000
0000
0010
0100
1000
0001
0110
1000
0110
0001
0010
0100
0010
0001
,
1100
0010
0001
0010
0100
1000
0010
0001
1100
0010
1100
0001
0010
0100
1000
0010
,
0101
1000
0101
0010
0001
0010
0100
1000
0110
0001
0110
1000
0010
0100
1000
0010
,
1001
0100
1001
0010
0100
0001
0010
0100
1001
0010
1001
0100
0010
0100
0001
1000
,
0110
0001
0110
1000
0100
0010
0001
1000
0101
0010
0101
1000
0010
0001
1000
0010
,
1100
0001
1100
0010
0001
1000
0100
0010
0101
1000
0101
0010
0001
0010
0100
1000
,
0011
0100
0011
1000
0100
0010
0001
0010
0100
1000
0100
0001
0010
0100
1000
0010
,
0101
0000
0101
1000
0010
0001
0100
0010
1100
0000
1100
0001
0010
0001
0100
1000
,
0110
0001
0110
1000
0010
0001
0100
1000
0011
0100
0011
1000
0100
0010
0100
0001
,
0110
1000
0110
0001
0010
0000
0000
0000
0100
0010
0001
0010
0100
1000
0100
0010
,
0100
0000
0001
0000
0100
0000
1000
0010
0100
0010
0001
0010
0100
0010
0100
1000
,
0100
1000
0100
0010
0200
0000
0000
0000
1000
0000
0000
0000
0001
0000
0010
0000
,
0000
0001
1300
0000
0010
0000
0001
0010
0000
0000
1000
0000
0100
0001
0010
0000
,
0200
0001
0000
1000
0000
0001
0310
1000
,
0010
0000
0001
0100
0010
0000
0100
0000
1000
0000
0001
0000
0010
0000
0100
1000
,
0010
0100
0001
0100
0010
0100
1000
0001
,
0010
0000
0001
0010
1100
0000
0010
0001
1000
0010
1100
0000
0001
0000
0010
0001
,
0110
1000
0010
0001
0010
0100
0010
1000
,
1001
0000
0100
0001
0010
0100
1000
0000
0011
0000
0100
0010
0001
0010
0100
0000
,
0010
0000
0100
0010
0100
1000
0100
1000
0010
0000
0100
0000
0010
0000
0100
0000
,
0001
0100
1000
0100
0010
0001
0010
0100
1000
0100
1000
0100
0010
0100
0010
0100
,
0010
0001
0010
0100
1000
0100
0010
0001
0011
0100
1000
0100
0010
0001
0010
0100
,
1100
0010
0001
0010
0100
1000
0110
0001
0010
0001
0010
0100
0010
0100
1000
0100
,
1001
0100
1000
0100
0010
0100
0010
0100
0010
0100
0010
0001
0010
0001
0010
0001
,
0010
0100
1000
0001
0000
0000
0000
0000
2002
0000
0000
0000
0000
0000
0000
0000
,
3223
0000
0000
0000
,
0000
0000
0000
0000
,
0000
0000
0000
0000
,
0000
0000
0000
0000
0000
2000
0000
0000
0000
0000
0000
0000
0000
0000
0000
0000
,
3300
0130
1000
0001
0000
0000
0000
0000
0000
0000
0000
0000
0000
0000
0000
0000
,
0000
0000
0000
0000
;

//---------------dance-single - ----------------
#NOTES:
     dance-single:
     :
     Challenge:
     20:
     1.000,1.000,1.000,0.195,1.000,787.000,224.000,25.000,0.000,61.000:
0000
0000
0000
0000
,
0110
0000
0000
0000
1001
0000
0000
0000
0001
0010
1000
0001
0110
0011
1100
0001
,
0100
0010
0001
0000
1010
0000
0100
0100
0011
0000
0110
0000
1100
0000
0001
0000
,
1000
0100
1000
0000
0011
0000
0100
0100
0011
0000
1000
0000
0110
0000
0001
0000
,
0100
1000
0010
0000
1001
0000
0001
0001
1010
0000
1000
0000
0011
0000
0200
0000
,
1000
0000
0020
0300
1032
0000
2000
0100
0013
0000
0010
0000
3101
0000
0100
0000
,
1000
0010
0100
0000
1001
0000
0100
0100
0110
0000
1000
0000
0110
0000
0001
0000
,
0100
0010
1000
0000
0011
0000
0001
0001
0110
0000
1000
0000
0101
0000
0010
0000
,
0001
0010
0100
1000
0001
0010
0001
0010
1000
0010
0100
0010
1000
0010
0001
0010
,
1100
0110
0011
0010
0101
0110
1010
0010
,
1100
0001
0010
0000
1010
0000
0100
0100
0011
0000
0010
0000
1100
0000
0010
0000
,
1000
0010
0100
0000
0001
0000
1000
0100
0110
0000
0001
0000
1010
0000
0100
0000
,
0001
0000
0010
0000
1010
0000
0100
0100
0011
0000
0010
0000
1100
0000
0010
0000
,
0001
0100
0010
0000
1010
0000
0100
0100
0011
0000
0010
0000
1100
0000
0001
0000
,
1000
0010
0100
0000
0011
0000
0010
0010
1100
0000
0100
0000
0011
0000
0010
0000
,
1000
0001
0100
0000
0110
0000
1000
1000
0101
0000
0100
0000
0011
0000
0010
0000
,
1000
0100
0010
0001
0001
0010
0100
1000
1000
0100
0010
0001
0001
0010
0100
1000
,
0200
0000
0000
0002
0000
0000
0000
0000
,
2313
0101
0110
0101
,
0110
0101
0110
0101
,
3120
0000
0000
0000
1100
0000
0100
0100
1001
0000
0000
0000
1100
0000
0000
0000
,
0101
0000
0000
0000
0101
0000
0001
0001
1100
0000
0100
0000
1101
0000
0000
0000
,
1231
0011
0011
1001
,
1312
1010
1100
0110
,
1023
0000
0101
0000
1001
0000
1100
0002
,
1100
0000
1000
0100
1100
0000
1100
0000
,
0133
0100
1001
0010
1100
0001
0110
1000
,
0011
0100
1010
0001
0110
1000
0101
0010
,
1100
0000
0001
0000
0110
0000
1000
0000
0101
0000
0010
0000
0001
0100
0010
1000
,
0001
0100
1000
0010
0001
0010
0100
1000
0100
0010
0100
0010
0100
1000
0100
0010
,
0101
1000
0110
0001
1010
0100
0011
1000
,
0101
0000
0010
0000
1100
0000
0001
1000
0110
0000
1000
0000
0101
0000
1000
0000
,
0110
0000
0001
0000
0010
0001
0010
0100
1000
1000
0100
0010
0001
0001
0010
0100
,
1000
1000
0100
0010
0001
0001
0010
0100
1000
1000
0100
0010
0001
0000
0000
0000
,
1110
0001
1110
1000
,
0111
0100
1110
0001
,
0111
1000
1101
0010
,
1101
0000
0100
0000
0011
0011
1000
0000
,
1101
0010
1110
0001
,
1110
0000
0001
0000
1100
1100
0010
0000
,
0111
0000
1000
0000
0110
0110
0001
0000
,
1110
0000
0000
0001
0110
0000
0000
0000
1010
0100
0011
0100
0010
0001
0010
0001
,
1010
0001
0100
0010
0101
1000
0100
0010
0101
1000
0101
0010
1001
0100
0010
1000
,
0101
0010
0100
1000
0110
0001
0010
0001
1100
0010
1100
0010
1001
0010
0100
1000
,
0110
0001
0010
0100
0011
0100
0010
0001
1010
0100
1010
0001
1010
0100
1000
0010
,
1001
0010
0100
1000
0110
0001
0010
1000
0101
0010
0101
1000
0101
0010
0001
1000
,
0110
0001
0010
0100
1001
0010
0100
0010
1100
0001
1100
0010
1001
0010
0100
0010
,
1001
0010
0100
0010
1100
0010
0001
0010
0101
1000
0101
0010
0101
1000
0010
0001
,
0110
1000
0100
0010
0101
1000
0010
0001
1100
0010
1100
0001
1010
0100
0002
0000
,
0000
0000
0000
0000
0023
0000
0000
0000
2030
0000
3011
0100
1000
0000
0101
0010
,
0100
0000
0110
0000
0011
0100
1000
0001
0110
1000
0110
0001
1010
0100
0010
0001
,
1100
0010
0001
0010
0101
1000
0010
0001
1100
0010
1100
0001
1010
0100
1000
0010
,
0101
1000
0101
0010
1001
0010
0100
1000
0110
0001
0110
1000
0011
0100
1000
0010
,
1001
0100
1001
0010
1100
0001
0010
0100
1001
0010
1001
0100
0011
0100
0001
1000
,
0110
0001
0110
1000
0101
0010
0001
1000
0101
0010
0101
1000
0110
0001
1000
0010
,
1100
0001
1100
0010
0101
1000
0100
0010
0101
1000
0101
0010
0101
0010
0100
1000
,
0011
0100
0011
1000
0101
0010
0001
0010
0101
1000
0110
0001
1010
0100
1000
0010
,
0101
0000
0101
1000
0110
0001
0100
0010
1100
0000
1100
0001
1010
0001
0100
1000
,
0110
0001
0110
1000
0110
0001
0100
1000
0011
0100
0011
1000
0101
0010
0100
0001
,
0110
1000
0110
0001
1010
0000
0000
0000
0100
0010
0001
0010
0100
1000
0200
0010
,
0001
0000
0301
0000
0100
0000
1000
0010
0100
0010
0001
0010
0100
0010
0100
1000
,
0100
1000
0100
0010
0200
0000
0000
0000
1000
0000
0010
0000
0001
0000
0010
0000
,
0000
0001
1300
0000
0010
0000
0001
0010
0000
0000
1000
0000
0100
0001
0010
0000
,
0200
0001
0010
1000
0010
0001
0310
1000
,
0010
0000
0001
0100
0010
0000
0100
0000
1000
0000
0001
0000
0010
0000
0100
1000
,
0010
0100
0001
0100
0010
0100
1000
0001
,
0010
0000
0001
0010
1100
0000
0010
0001
1000
0010
1100
0000
0001
0000
0010
0001
,
0110
1000
0010
0001
0010
0100
0010
1000
,
1001
0000
0100
0001
0010
0100
1000
0000
0011
0000
0100
0010
0001
0010
0100
0000
,
0010
0000
0100
0010
0100
1000
0100
1000
0010
0000
0100
0000
0010
0000
0100
0000
,
0001
0100
1000
0100
0010
0001
0010
0100
1000
0100
1000
0100
0010
0100
0010
0100
,
0010
0001
0010
0100
1000
0100
0010
0001
0011
0100
1000
0100
0010
0001
0010
0100
,
1100
0010
0001
0010
0100
1000
0110
0001
0010
0001
0010
0100
0010
0100
1000
0100
,
1001
0100
1000
0100
0010
0100
0010
0100
0010
0100
0010
0001
0010
0001
0010
0001
,
0010
0100
0020
0000
0000
0000
0000
0000
2032
0000
0010
0010
0100
0000
0010
0010
,
3223
0000
0000
0000
,
0000
0000
0000
0000
,
0000
0000
0000
0000
,
0000
0000
0000
0000
0000
2000
0000
0000
0000
0000
0000
0000
3002
0000
0000
0000
,
0303
0131
1100
0011
0000
0000
0000
0000
0000
0000
0000
0000
0000
0000
0000
0000
,
0000
0000
0000
0000
;

//---------------dance-solo - ----------------
#NOTES:
     dance-solo:
     :
     Hard:
     15:
     1.000,1.000,1.000,0.133,0.979,762.000,136.000,17.000,0.000,32.000:
000000
000000
000000
000000
,
000001
000000
000000
000000
100000
000000
000000
000000
000100
000010
001000
000001
000010
000100
001000
010000
,
100000
010000
001000
000000
000100
000000
000010
000000
000100
000000
001000
000000
010000
000000
001000
000000
,
000010
000001
000010
000000
000100
000000
001000
000000
010000
000000
100000
000000
010000
000000
001000
000000
,
000100
001000
000010
000000
000001
000000
000100
000000
000010
000000
100000
000000
001000
000000
020000
000000
,
000000
000100
000001
031000
000000
000100
000010
001000
,
000100
000001
000010
000000
000100
000000
000010
000000
000001
000000
100000
000000
010000
000000
001000
000000
,
000010
000001
000100
000000
001000
000000
010000
000000
000010
000000
100000
000000
000100
000000
001000
000000
,
000001
000010
000100
001000
000001
000010
000100
001000
010000
000010
000100
001000
010000
100000
010000
001000
,
000100
000010
000100
000010
000001
010000
100000
000001
,
000010
000100
001000
000000
010000
000000
001000
000000
000001
000000
001000
000000
100000
000000
000100
000000
,
000100
000001
000010
000000
001000
000000
100000
000000
010000
000000
000001
000000
000010
000000
000100
000000
,
000010
000100
100000
000001
001000
010000
100000
000100
,
000010
001000
000100
000000
010000
000000
001000
000000
000001
000000
000010
000000
000100
000000
000010
000000
,
100000
001000
010000
000000
000001
000000
000010
000000
001000
000000
010000
000000
000001
000000
000010
000000
,
100000
000100
000010
000000
010000
000000
001000
000000
000100
000000
010000
000000
000001
000000
000100
000000
,
100000
010000
001000
000100
000001
000010
000100
001000
010000
001000
000010
000100
000010
000001
100000
000001
,
020000
000000
000000
000200
000000
000000
000000
000000
,
230301
000000
000000
000000
010010
000000
000000
010000
001000
000000
000000
000000
010010
000000
000000
010000
,
001000
000000
000000
000000
010010
000000
000000
010000
001000
000000
000000
000000
010010
000000
000000
000000
,
312000
000000
010010
010000
000011
000000
010010
000000
,
010001
000000
010001
000010
010010
000000
010011
000000
,
123001
000101
000101
100001
,
030211
000011
010001
010010
,
002301
000000
010100
000000
000101
000000
010001
000200
,
010001
000001
010001
010001
,
013300
100000
010001
000100
000011
010000
001100
000001
,
110000
000010
001001
100000
001010
000001
101000
010000
,
001100
000000
100000
000000
010010
000000
000001
000000
100010
000000
010000
000000
100000
000100
001000
000010
,
010000
000100
000010
000100
010000
001000
000100
000010
000100
001000
010000
100000
010000
001000
000100
000010
,
100001
000010
001100
010000
101000
010000
000110
001000
,
110000
000000
000010
000000
010100
000000
100000
000001
011000
000000
000100
000000
101000
000000
000001
000000
,
011000
000000
100000
000000
001000
000100
001000
010000
100000
010000
001000
000100
000010
000001
000010
000001
,
000010
000100
001000
010000
100000
010000
001000
000100
000010
000001
000010
000100
001000
000000
000000
000000
,
100001
000010
001100
100000
,
001010
000001
100100
000001
,
010010
100000
001001
000100
,
100001
000000
010000
000000
010010
001001
100000
000000
,
001001
000100
100001
000100
,
010001
000000
000100
000000
100001
100010
000100
000000
,
010100
000000
100000
000000
010001
010001
000100
000000
,
100001
000000
000000
000010
011000
000000
000000
000000
100000
000000
001000
010000
001000
000100
000010
000001
,
100100
000010
000100
001000
010000
100000
010000
001000
010100
001000
000101
000010
100000
000100
000010
100000
,
000101
000010
000100
001000
010000
000100
001000
000100
100010
000001
010100
000010
000100
001000
010000
100000
,
011000
000100
001000
010000
001000
000100
000010
000001
100010
000100
101000
000100
001000
010000
100000
010000
,
101000
000100
001000
010000
001000
000100
000010
000001
010010
000100
001010
010000
100000
010000
001000
000100
,
101000
000001
000010
010000
000100
001000
010000
001000
100010
000100
100001
010000
000010
000100
001000
000100
,
100010
000100
001000
000100
100010
000001
000010
000100
001010
000001
001010
000100
000010
100000
000100
000010
,
001100
010000
001000
000100
001001
010000
001000
000100
001010
000001
100010
000100
001000
010000
000100
000000
,
000000
000000
000000
000000
000001
000000
000000
000000
100000
000000
000001
000010
000100
000000
000010
000100
,
001000
000000
000000
000000
000010
000100
001000
000100
011000
100000
011000
000001
000010
000100
001000
000100
,
101000
000010
000001
000010
000100
100000
001000
000100
100010
000001
100010
000100
001000
010000
100000
001000
,
010100
000010
000101
001000
000001
000010
000100
001000
110000
000001
010010
000100
001000
010000
100000
001000
,
100100
010000
100001
000010
000100
001000
010000
100000
010001
000010
100100
010000
001000
000010
000100
100000
,
011000
000100
010010
001000
000100
000010
000001
001000
000101
000010
010100
100000
000010
000001
000100
001000
,
010010
001000
100100
000010
000001
100000
010000
001000
000101
000010
000101
001000
000100
001000
010000
100000
,
001001
010000
100001
001000
000100
000010
000001
000010
000100
001000
010000
000100
001000
010000
100000
001000
,
010010
000000
010010
001000
000100
000010
000001
000010
100100
000000
100010
000100
001000
000100
010000
100000
,
011000
000001
011000
100000
000010
000001
000100
100000
001001
010000
000101
100000
010000
001000
000010
000100
,
011000
100000
010100
000010
000001
000000
000000
000000
010000
001000
000100
000010
000001
000010
000100
001000
,
010000
000000
001000
000000
100000
000000
010000
001000
000100
000010
000001
000010
000100
001000
010000
100000
,
010000
001000
000100
000010
020000
000000
000000
000000
000010
000000
000000
000000
000001
000000
000100
000000
,
000000
000001
130000
000000
001000
000000
000001
000010
000000
000000
000100
000000
010000
000010
000100
000000
,
020000
000010
000000
100000
000000
000001
030010
100000
,
001000
000000
000100
000010
000001
000000
000010
000000
000100
000000
001000
000000
000100
000000
001000
010000
,
000100
100000
000010
000001
001000
010000
100000
000001
,
000010
000000
000100
001000
110000
000000
001000
000100
000010
000001
100010
000000
000100
000000
000010
000001
,
011000
100000
001000
000100
000001
000100
001000
100000
,
001100
000000
010000
000100
001000
000010
100000
000000
001100
000000
000001
001000
000100
001000
010000
000000
,
001000
000000
000010
000100
010000
100000
000001
000010
001000
000000
000100
000000
001000
000000
000010
000000
,
000100
010000
100000
010000
001000
000100
000010
000001
000010
000100
001000
010000
100000
010000
001000
000100
,
000010
000001
000010
000100
001000
010000
100000
010000
001001
000100
000010
000001
000010
000100
001000
010000
,
100001
010000
001000
000100
000010
000001
010010
000100
001000
010000
100000
010000
001000
000100
000010
000001
,
001010
000100
001000
010000
100000
010000
001000
000100
000010
000001
000010
000100
001000
010000
100000
010000
,
001000
000100
000010
100001
000000
000000
000000
000000
200002
000000
000000
000000
000000
000000
000000
000000
,
320023
000000
000000
000000
,
000000
000000
000000
000000
,
000000
000000
000000
000000
,
000000
000000
000000
000000
000000
200002
000000
000000
000000
000000
000000
000000
000000
000000
000000
000000
,
330033
010010
000100
001000
000000
000000
000000
000000
000000
000000
000000
000000
000000
000000
000000
000000
,
000000
000000
000000
000000
;

//---------------dance-solo - ----------------
#NOTES:
     dance-solo:
     :
     Challenge:
     20:
     1.000,1.000,1.000,0.281,1.000,781.000,222.000,36.000,0.000,79.000:
000000
000000
000000
000000
,
100100
000000
000000
000000
101010
000000
000000
000000
010000
000010
100000
000100
000001
010000
100000
001000
,
010010
001000
000110
000000
101000
000000
010000
010000
000110
000000
000010
000000
011000
000000
000100
000000
,
101000
000000
000100
000000
001000
000000
010000
010000
000110
000000
100000
000000
001001
000000
100000
000000
,
000100
000100
000010
000000
000100
000000
010000
010000
000110
000000
100000
000000
001100
000000
020020
000000
,
000100
000000
000001
000000
001100
000000
030130
000100
110000
000000
001000
000000
010100
000000
000100
000000
,
100000
000010
010000
000000
000101
000000
010000
010000
000110
000000
100000
000000
011000
000000
000100
000000
,
010000
000100
100000
000000
000100
000000
010000
010000
000101
000000
100000
000000
000110
000000
001100
000000
,
000100
001000
010000
001000
000100
000010
000100
000001
000100
001000
010000
001000
010000
001000
000100
000010
,
010100
001100
100010
001000
010100
000010
100100
001000
,
010000
000001
001000
000000
100000
000000
010000
010000
001100
000000
000010
000000
010100
000000
001000
000000
,
100000
000100
000010
000000
000100
000000
100000
100000
001010
000000
000100
000000
001001
000000
010000
000000
,
000100
000000
001000
000000
100100
000000
000100
000100
011000
000000
001000
000000
010100
000000
000001
000000
,
000100
010000
000100
000000
010010
000000
001000
001000
000101
000000
001000
000000
010010
000000
000100
000000
,
001000
000100
010000
000000
000100
000000
010000
010000
001100
000000
010000
000000
000110
000000
001000
000000
,
100000
000100
010000
000000
001001
000000
100000
000000
000100
000000
010000
000000
001100
000000
001000
001000
,
100000
010000
001000
000100
000001
000010
000100
001000
100000
010000
000010
000100
001000
010000
000100
000010
,
020002
000000
000000
000223
000000
000000
000000
000000
,
231331
010101
001000
011100
,
010101
011010
011010
010101
,
312120
000000
000000
000000
010001
000000
010000
010000
100101
000000
000000
000000
100101
000000
000000
000000
,
110100
000000
000000
000000
010101
000000
010000
010000
100101
000000
000100
000000
110100
000000
000000
000000
,
023132
001100
101010
101000
,
132213
100001
110010
010010
,
103310
000000
010101
000000
100101
000000
110010
000002
,
102000
100020
113230
110000
,
010303
001000
100100
000010
001010
000100
010010
100000
,
001010
010000
010001
000100
010010
000100
100010
010000
,
001010
000000
100000
000000
001001
000000
000100
000000
100001
000000
000100
000000
100000
000010
010000
000100
,
010000
000010
000100
010000
000010
100000
000100
000001
001000
010000
000100
000010
000100
010000
000010
001000
,
100101
000100
011000
100000
000101
001000
001010
000100
,
101000
000000
010000
000000
001010
000000
100000
000010
010100
000000
000100
000000
100010
000000
000100
000000
,
010100
000000
100000
000000
001000
000100
000010
000001
010000
001000
000100
000010
001000
000100
000010
010000
,
001000
000100
001000
000010
000100
001000
010000
000010
000100
010000
001000
000100
000020
000000
000000
000000
,
101031
000100
010110
100000
,
010110
000100
101010
000100
,
011010
100000
010101
001000
,
101001
000000
010000
000000
010110
010110
100000
000000
,
010101
001000
110100
000100
,
011010
000000
000100
000000
101100
010110
000100
000000
,
010101
000000
100000
000000
110100
010110
000100
000000
,
101101
000000
000000
000100
011000
000000
000000
000000
100010
000000
001100
010000
001000
000100
001000
010000
,
001010
000100
010000
001000
010010
100000
010000
001000
000110
100000
010100
001000
100000
010000
001000
000010
,
010100
000010
000100
000010
100001
000100
001000
000100
100010
001000
010001
001000
000110
001000
010000
001000
,
000110
010000
001000
000100
001010
010000
001000
000010
001001
000100
011000
000100
001001
010000
100000
000001
,
010010
000100
010000
100000
001100
010000
001000
000010
010001
001000
010100
000010
100100
001000
000100
100000
,
011000
000001
001000
000010
100100
001000
010000
001000
000011
000100
000011
001000
100100
001000
100000
001000
,
010010
000100
000010
010000
000110
001000
000100
010000
000101
000010
010100
001000
100100
000010
000100
010000
,
001100
000010
001000
100000
010100
000010
010000
000100
001100
010000
001010
100000
000010
001000
000001
000000
,
000000
000000
000000
000000
001010
000000
000000
000000
100000
000000
001000
010000
100000
000000
000001
000010
,
000100
000000
010000
000000
001010
010000
100000
000100
001010
000001
011000
000100
001010
010000
001000
000100
,
000011
001000
000100
001000
010010
100000
001000
000001
000110
001000
000011
000100
101000
000100
001000
000010
,
010100
001000
000110
010000
001001
000010
000100
000010
011000
000100
010010
000001
001100
010000
100000
010000
,
001010
000001
000110
001000
010000
000100
001000
100000
010010
001000
100100
010000
001010
010000
000001
000100
,
001001
000100
010010
100000
010001
001000
000100
000010
010100
001000
010010
000001
101000
000100
100000
001000
,
000011
000100
000011
001000
100100
000001
000010
001000
010100
000001
010010
001000
000101
001000
010000
001000
,
000110
001000
000110
100000
010001
001000
000100
001000
010010
100000
011000
000001
100010
000100
001000
000010
,
010100
000010
100100
000001
011000
000100
010000
001000
010010
000000
001100
000001
101000
000100
010000
100000
,
000011
000100
001010
010000
001001
000100
010000
000010
000101
010000
001010
100000
010100
001000
010000
000001
,
000110
010000
001100
000001
001100
000000
000000
000000
010000
001000
000100
001000
010000
000001
000020
000100
,
001000
000000
000100
000000
010030
000000
100000
001000
010000
001000
000100
001000
010000
001000
010000
000100
,
010000
000100
000010
000001
020020
000000
000000
000000
130002
000000
000000
000000
000100
000000
020003
000000
,
000000
000000
131030
000000
001000
000000
000100
010000
000000
000000
100000
000000
010000
000010
001000
000000
,
020002
000100
000000
130020
000000
000100
001033
200000
,
001000
000000
000100
010000
301000
000000
000010
000000
100000
000000
000100
000000
001000
000000
010000
000010
,
001000
010000
000001
010000
001000
000010
100000
000100
,
001000
000000
000100
001000
000011
000000
001000
000100
100000
001000
110000
000000
000100
000000
001000
000100
,
011000
100000
001000
000100
001000
010000
001000
000001
,
100020
000000
010000
000100
001000
010000
100000
000000
001130
000000
010000
001000
000100
000010
000001
000000
,
001000
000000
010000
001000
010000
100000
010000
100000
001000
000000
000010
000000
001000
000000
000100
000010
,
000100
010000
100000
010000
001000
000100
001000
000100
000010
000100
000010
000100
001000
010000
001000
000100
,
000010
000100
001000
010000
100000
010000
001000
000100
010001
000010
000001
000010
000100
000010
001000
000100
,
100010
001000
000100
001000
000100
000010
010001
000100
001000
000100
001000
010000
001000
010000
001000
000100
,
100010
001000
000100
000010
000001
000010
000100
001000
100010
010000
001000
000100
001000
000100
001000
000100
,
001000
010000
002000
000000
000000
000000
000000
000000
203120
000000
000100
000100
001000
000000
000100
000100
,
321032
000000
000000
000000
,
000000
000000
000000
000000
,
000000
000000
000000
000000
,
000000
000000
000000
000000
000000
232023
000000
000000
000000
000000
000000
000000
000000
000000
000000
000000
,
303030
010010
001100
010010
000000
000000
000000
000000
000000
000000
000000
000000
000000
000000
000000
000000
,
000000
000000
000000
000000
;
